全民目击.Silent.Witness.2013.1080p.WEB-DL.x264.AAC-SmY

2013年12月20日AM10时59分 / 作者:   / 未分类  / 发表评论 /

◎译  名 全民目击
◎片  名 Silent Witness
◎年  代 2013
◎国  家 中国大陆
◎类  别 悬疑 / 犯罪
◎语  言 汉语普通话
◎字  幕 中文/英文
◎IMDB评分   N/A
◎IMDB链接   N/A
◎文件格式 x264 +AAC
◎视频尺寸 1920 x 808
◎文件大小 2.02G
◎片  长 120min
◎导  演 非行 Fei Xing
◎主  演 孙红雷 Honglei Sun  ....林泰
郭富城 Aaron Kwok  ....童涛
余男 Nan Yu  ....周莉
邓家佳 Jiajia Deng  ....林萌萌
赵立新 Lixin Zhao  ....孙伟
佟丽娅 Liya Tong  ....李晓妮
倪虹洁 Hongjie Ni  ....苏虹
陈思诚 Sicheng Chen  ....陈导
周韦彤 Weitong Zhou  ....杨

◎简  介

富豪林泰(孙红雷饰)婚期将至,准新娘却惨死地下停车场,林泰的富二代女儿林萌萌成为最大嫌疑人,林泰不惜重金聘请国内顶级律师周莉(余男饰)为独女辩护,而公诉方却是互生罅隙多年的检察官童涛(郭富城饰)。随着法庭质证的深入,罪案真相却越来越扑朔迷离,谁才是真正的凶手?所有人都深陷迷局,而作局者是谁?他有怎样的阴谋?所有人都目击了整个罪案过程,但真相永远隐遁在迷雾之中。“人的一生,总有些东西比命还重要!”心灵的救赎,更发人深省!

File size : 2.02 GiB
Duration : 2h 0mn
Overall bit rate : 2 406 KbpsVideo
Format : AVC
Format/Info : Advanced Video Codec
Format profile : High@L4.1
Format settings, CABAC : Yes
Format settings, ReFrames : 4 frames
Muxing mode : Container profile=Unknown@4.1
Duration : 2h 0mn
Bit rate : 2 273 Kbps
Nominal bit rate : 2 328 Kbps
Width : 1 920 pixels
Height : 808 pixels
Display aspect ratio : 2.35:1
Frame rate mode : Variable
Frame rate : 24.000 fps
Resolution : 8 bits
Colorimetry : 4:2:0
Scan type : Progressive
Bits/(Pixel*Frame) : 0.061
Stream size : 1.96 GiB (97%)
Writing library : x264 core 128
Audio
Format : AAC
Format/Info : Advanced Audio Codec
Format version : Version 4
Format profile : LC
Format settings, SBR : Yes
Format settings, PS : No
Duration : 2h 0mn
Bit rate : 70.7 Kbps
Channel(s) : 2 channels
Channel positions : L R
Sampling rate : 48.0 KHz
Resolution : 16 bits
Stream size : 64.1 MiB (3%)

电影截图

磁力链接:

Silent.Witness.2013.1080p.WEB-DL.x264.AAC-SmY    中英(内嵌)2.02G

BT种子:

Silent.Witness.2013.1080p.WEB-DL.x264.AAC-SmY    中英(内嵌)2.02G

admin

发表评论

:?: :razz: :sad: :evil: :!: :smile: :oops: :grin: :eek: :shock: :???: :cool: :lol: :mad: :twisted: :roll: :wink: :idea: :arrow: :neutral: :cry: :mrgreen:

图片 表情