菲利普船长/盗海狙击(港)/怒海劫(台).Captain Phillips 2013 WEBRip x264 AC3-MiLLENiUM

2013年11月30日PM12时41分 / 作者:   / 未分类  / 评论 2 /

菲利普船长 Captain Phillips (2013)

导演: 保罗·格林格拉斯
编剧: 比利·雷
主演: 汤姆·汉克斯 / Barkhad Abdi / Barkhad Abdirahman / Faysal Ahmed / Mahat M. Ali / Michael Chernus / 克里·约翰逊 / 马克斯·马蒂尼 / 克里斯·马尔基 / 尤尔·瓦斯克斯 / 大卫·沃肖夫斯基
类型: 剧情 / 动作 / 惊悚
官方网站: www.captainphillipsmovie.com
制片国家/地区: 美国
语言: 英语
上映日期: 2013-10-11(美国)
片长: 134分钟
又名: 盗海狙击(港) / 怒海劫(台) / 菲利普斯船长
IMDb链接: tt1535109

剧情简介

2009年,美国货轮“马士基·阿拉巴马”号在船长理查德·菲利普(汤姆·汉克斯 Tom Hanks 饰)的带领下执行在非洲角区域的货物运输任务。该次任务的航线途径海盗猖獗的索马里地区海域。虽然菲利普船长和船员都进行过抗击海盗的训练和演习,但是他们完全没有料到在启程不久就遭遇了四名索马里海盗的登船袭击。菲利普船长在保护船员和货物的搏斗中不幸被海盗劫为人质并带离货船。美国海军等部门接到情报后立即展开大规模营救菲利普船长的行动。

本片根据真实事件改编。这是近200年以来美国船只首次遭到海盗的劫持。

幕后制作

影片改编自亲历事件者理查德·菲利普斯撰写的纪实文学《一个船长的使命:索马里海盗、美国海军陆战队以及危险航行》,由《社交网战》的制片人斯科特·鲁丁及凯文·史派西担纲制作,曾为《国家要案》、《空中危机》、《饥饿游戏》等片执笔的编剧比利·雷操刀剧本。

磁力下载

引用

Captain Phillips 2013 WEBRip x264 AC3-MiLLENiUM  1.07 GB

韩国棒子国又流出片源了。。虽然画质有叫不上高清。有韩语硬字幕,不喜忽下。

蓝光要明年2月份才能出。

BT下载

引用

Captain Phillips 2013 WEBRip x264 AC3-MiLLENiUM  1.07 GB

引用

Captain Phillips 2013 WEBRip x264 AC3-MiLLENiUM

General

Source...............: 720p.HDR6.AC3.H264-N.E.T.ism [THANKS]
IMDb Information.... : http://www.imdb.com/title/tt1535109/
Sample Included......: yes
Subtitles............: Chinese Hardcoded throughout

General
Complete name : Captain Phillips 2013 WEBRip x264 AC3-MiLLENiUM.mkv
Format : Matroska
Format version : Version 2
File size : 1.06 GiB
Duration : 2h 13mn
Overall bit rate mode : Variable
Overall bit rate : 1 136 Kbps
Encoded date : UTC 2013-11-29 15:13:41
Writing application : mkvmerge v6.5.0 ('Isn't she lovely') built on Oct 20 2013 12:50:05
Writing library : libebml v1.3.0 + libmatroska v1.4.1

Video
ID : 1
Format : AVC
Format/Info : Advanced Video Codec
Format profile : High@L4.1
Format settings, CABAC : Yes
Format settings, ReFrames : 3 frames
Codec ID : V_MPEG4/ISO/AVC
Duration : 2h 13mn
Bit rate mode : Variable
Bit rate : 730 Kbps
Maximum bit rate : 40.0 Mbps
Width : 720 pixels
Height : 384 pixels
Display aspect ratio : 1.85:1
Frame rate mode : Constant
Frame rate : 30.000 fps
Color space : YUV
Chroma subsampling : 4:2:0
Bit depth : 8 bits
Scan type : Progressive
Bits/(Pixel*Frame) : 0.088
Stream size : 698 MiB (64%)
Writing library : x264 core 140 r2377 1ca7bb9

Audio
ID : 2
Format : AC-3
Format/Info : Audio Coding 3
Mode extension : CM (complete main)
Format settings, Endianness : Big
Codec ID : A_AC3
Duration : 2h 13mn
Bit rate mode : Constant
Bit rate : 384 Kbps
Channel(s) : 2 channels
Channel positions : Front: L R
Sampling rate : 48.0 KHz
Bit depth : 16 bits
Compression mode : Lossy
Delay relative to video : 7ms
Stream size : 367 MiB (34%)
Language : English
Default : Yes
Forced : No

郑重声明:
本站提供的所有影视作品均是在网上搜集,任何涉及商业盈利目的均不得使用,否则产生的一切后果将由您自己承担!本站将不对本站的任何内容负任何法律责任!该下载内容仅做宽带测试使用,请在下载后24小时内删除。请购买正版!

写给访问本站,热爱电影的「小伙伴」的一封信!!

admin

目前评论:2   其中:访客  2   博主  0

  1. 99赤子心 5

    内地还有上映的可能吗?小黄人 一开始也说上不了 后来又传出明年上!

评论加载中...

发表评论

:?: :razz: :sad: :evil: :!: :smile: :oops: :grin: :eek: :shock: :???: :cool: :lol: :mad: :twisted: :roll: :wink: :idea: :arrow: :neutral: :cry: :mrgreen:

图片 表情