逃出生天/火痛.Out.Of.Inferno.2013.1080p.WEB-DL.x264.AAC-SmY

2013年11月26日AM01时42分 / 作者:   / 未分类  / 评论 2 /

◎译  名 逃出生天/火痛
◎片  名 Out Of Inferno 3D
◎年  代 2013
◎国  家 中国大陆/香港
◎类  别 剧情 / 灾难
◎语  言 汉语普通话
◎字  幕 简体
◎IMDB评分  http://www.imdb.com/title/tt2957680
◎IMDB链接  Ratings: 6.5/10 from 61 users
◎文件格式 x264+ AAC
◎视频尺寸 1920 X 1080
◎文件大小 1CD 1.81G
◎片  长 107min
◎导  演 彭发 Danny Pang
◎主  演 刘青云 Ching Wan Lau  ....大军
古天乐 Louis Koo  ....阿强
李心洁 Angelica Lee  ....大军妻子思乐
陈思诚 Sicheng Chen  ....妇产科医生
金巧巧 Jin Qiaoqiao  ....被困女孩母亲
李馨巧 Crystal Lee  ....被困女孩马嘿
阿依 Yi A
马浴柯 Yuhe Ma
臧金生 Jinsheng Zang
张兆辉 Siu-Fai Cheung

◎简  介

这是五十年最酷热的一天。阿强(古天乐饰)三年前离开消防部队,白手起家发展消防警报系统事业。今天,是公司资产值冲破十亿的庆功会,可惜,突如其来的“闪燃”,在全无预警下,爆发特大火灾!原本一场衣香鬓影、兴高采烈的派对,顷刻变成恐慌大逃亡。
烟囱效应,引发各层连环起火,爆发困兽式火灾,阿强跟一班灾民无处可逃,看着有人当场葬身火海,重燃埋藏在心中多年的救人热情,决定领人向上而逃至隔火层待救!阿强更惊见兄长的妻子思乐(李心洁饰)同处险地,他要设法保护这位亲人。此时,阿强打出一个早已在人生删掉的号码,联络一个不想再见面的兄长大军(刘青云 饰)。
大军,消防特勤队大队长,接报赶到现场展开救援行动,但在大厦内的阿强手无寸铁,他只好带一众灾民,与时间赌博,自寻生路。他们冲破如魔兽般的浓烟,到达隔火层,等待大军尽快赶上来营救!
两兄弟相遇,展开漫长抗火逃生之旅!不久,整个地板下陷,阿强与大军双双下堕,外头的扑救工作从早进入黑夜,大厦电机房终超出负荷爆炸,整栋大厦进入彻底漆黑。阿强发现电梯槽积水,两兄弟决定潜入水底打开最底层的门,让大量水流冲掉大堂的大火,让众人逃生,电梯快要下坠,众人同心合力,以找来巨大铁柜为两人阻挡,。最后的大爆炸,天花下塌,地面大堂爆出大团浓烟,众人引颈以待……

BT下载

引用

Out.Of.Inferno.2013.1080p.WEB-DL.x264.AAC-SmY   中文(内嵌)1.81G

引用

File size : 1.81 GiB
Duration : 1h 47mn
Overall bit rate : 2 417 Kbps
Video
Format : AVC
Format/Info : Advanced Video Codec
Format profile : High@L4.1
Format settings, CABAC : Yes
Format settings, ReFrames : 4 frames
Format settings, GOP : M=4, N=7
Codec ID : 7
Duration : 1h 47mn
Bit rate : 2 328 Kbps
Width : 1 920 pixels
Height : 1 080 pixels
Display aspect ratio : 16:9
Frame rate mode : Constant
Frame rate : 24.000 fps
Color space : YUV
Chroma subsampling : 4:2:0
Bit depth : 8 bits
Scan type : Progressive
Bits/(Pixel*Frame) : 0.047
Stream size : 1.76 GiB (97%)
Writing library : x264 core 128
Audio
Format : AAC
Format/Info : Advanced Audio Codec
Format profile : HE-AAC / LC
Codec ID : 10
Duration : 1h 53mn
Bit rate : 70.7 Kbps
Channel(s) : 2 channels
Channel positions : Front: L R
Sampling rate : 48.0 KHz / 24.0 KHz
Compression mode : Lossy
Stream size : 57.1 MiB (3%)

郑重声明:
本站提供的所有影视作品均是在网上搜集,任何涉及商业盈利目的均不得使用,否则产生的一切后果将由您自己承担!本站将不对本站的任何内容负任何法律责任!该下载内容仅做宽带测试使用,请在下载后24小时内删除。请购买正版!

写给访问本站,热爱电影的「小伙伴」的一封信!!

admin

目前评论:2   其中:访客  2   博主  0

  1. hairlikesnow 5

    again this is solely in Chinese please correct this in the description ..

评论加载中...

发表评论

:?: :razz: :sad: :evil: :!: :smile: :oops: :grin: :eek: :shock: :???: :cool: :lol: :mad: :twisted: :roll: :wink: :idea: :arrow: :neutral: :cry: :mrgreen:

图片 表情