卓别林经典系列4部曲.Charlie.Chaplin.1925-1940.BluRay.720p.x264.AC3-HDiY 英语中字

2013年11月20日AM11时54分 / 作者:   / 未分类  / 发表评论 /

Image

※※※※※※※ 影片信息 ※※※※※※※

【英文片名】:The Gold Rush
【中文片名】:淘金记
【国家地区】:美国
【出品年代】:1925
【影片类型】:冒险、喜剧、家庭、爱情、西部
【片  长】:72mins
【对白语言】:英语
【视频尺寸】:960x720
【编码格式】:x264+AC3
【影片大小】:1.36GB

【 MD  5值】:A068613E18D2ADDCED3359708D3689D0
【字幕类型】:中文字幕
【Imdb链接】:http://www.imdb.com/title/tt0015864/
【Imdb评分】:8.2/10   19,979 votes
【导  演】:查理·卓别林 Charles Chaplin
【主要演员】:查理·卓别林 Charles Chaplin ....The Lone Prospector
Mack Swain ....Big Jim McKay
Tom Murray ....Black Larsen
亨利·伯格曼 Henry Bergman ....Hank Curtis
Malcolm Waite ....Jack Cameron
Georgia Hale ....Georgia

※※※※※※※ 资料信息 ※※※※※※※

【剧情简介】:

流浪汉查理随大批贫民到阿拉斯加淘金,跑进通缉犯拉逊的小木屋。接着,一名魁梧的寻矿人吉姆也闯进了小木屋,并抢到拉逊的枪。拉逊不得不出外找寻食物,他打死了警察夺得口粮,回来时发现了吉姆正在开发的金矿,便不再回小木屋。查理饿极,以皮鞋充饥,还吃得津津有味。吉姆不肯吃,神智恍惚中把查理当作火鸡,举枪要杀,混乱中跑进一头大熊,两人合力把熊打死,饱餐一顿之后便分道扬镳。吉姆发现自己的矿坑被拉逊侵吞,拉逊打昏吉姆之后逃走,却失足跌下深谷。查理在小镇上的舞厅邂逅舞女乔治亚,帮她摆平了暴发户的骚扰。后来,查理帮富翁汉克看家,在门口又巧遇乔治亚,大喜过望,邀她在除夕夜来吃晚餐。结果,乔治亚没来,查理却在幻梦中为她表演了一段小面包舞。被打后失忆的吉姆在镇上重遇查理,要求他帮忙找寻金矿所在地。两人经千辛万苦回到小木屋,大风雪却把整间木屋刮到悬崖上。吉姆用绳子救起查理时,小木屋落下了万丈深渊,而他们发现金矿正在那里。结果,查理与吉姆成了富翁,坐头等舱回乡,却在船上三等舱巧遇潦倒的乔治亚。查理与乔治亚在新闻记者的镜头前热情相拥。

【幕后制作】:

本片的故事情节取材自唐纳尔派幕的短篇小说。本片充分表现出卓别林的典型风格,尤其是他处理视觉形象和哑剧的超凡功力,像经典的“煮食皮靴”场面,以及“小包面舞”、“带狗跳舞”、“别人打架而枪总对着自己”,“悬崖木屋险象横生”等,都成为后世参考模仿的对象。本片将滑稽叙事、悲剧色彩、抒情韵味三者作巧妙的平衡结合,使它成为别林作品中成熟期代表作。往后的作品增加了不少社会批判色彩,反不如本片直接关注小人物来得那么单纯和乐观。例如本片安排流浪汉查理既成为大富翁又抢得美人归,这种圆满的结局是他以后的作品没有的。本片是卓别林本人最钟爱的作品,也是他最有趣的作品之一,在多项世界性的影史十大佳作评选中均居前列。

※※※※※※※ 参数信息 ※※※※※※※

D:\[HDiY工作组]MKV高清收藏资源\飞鸟娱乐(bbs.hdbird.com).卓别林经典系列4部曲.720P.英语中字£子凡\淘金记 The Gold Rush.1925.BluRay.720p.x264.AC3-HDiY.mkv
General
Complete name : D:\[HDiY工作组]MKV高清收藏资源\飞鸟娱乐(bbs.hdbird.com).卓别林经典系列4部曲.720P.英语中字£子凡\淘金记 The Gold Rush.1925.BluRay.720p.x264.AC3-HDiY.mkv
Format : Matroska
File size : 1.36 GiB
Duration : 1h 11mn
Overall bit rate : 2 717 Kbps
Movie name : Encoded By HDiY Team
Encoded date : UTC 2010-05-29 02:53:57
Writing application : mkvmerge v3.4.0 ('Rapunzel') 编译于 May 15 2010 09:38:20
Writing library : libebml v0.8.0 + libmatroska v0.9.0
Video #1
ID : 1
Format : AVC
Format/Info : Advanced Video Codec
Format profile : High@L4.1
Format settings, CABAC : Yes
Format settings, ReFrames : 6 frames
Muxing mode : Container profile=Unknown@4.1
Codec ID : V_MPEG4/ISO/AVC
Duration : 1h 11mn
Bit rate : 2 471 Kbps
Nominal bit rate : 2 523 Kbps
Width : 960 pixels
Height : 720 pixels
Display aspect ratio : 4:3
Frame rate : 24.000 fps
Resolution : 8 bits
Colorimetry : 4:2:0
Scan type : Progressive
Bits/(Pixel*Frame) : 0.149
Stream size : 1.24 GiB (91%)
Title : HDiy@HDiY
Writing library : x264 core 80 r1376M 3feaec2
Encoding settings : cabac=1 / ref=6 / deblock=1:0:0 / analyse=0x3:0x133 / me=umh / subme=6 / psy=1 / psy_rd=1.0:0.0 / mixed_ref=0 / me_range=24 / chroma_me=1 / trellis=2 / 8x8dct=1 / cqm=1 / deadzone=21,11 / fast_pskip=0 / chroma_qp_offset=-2 / threads=6 / sliced_threads=0 / nr=0 / decimate=0 / mbaff=0 / constrained_intra=0 / bframes=6 / b_pyramid=2 / b_adapt=2 / b_bias=4 / direct=2 / wpredb=1 / wpredp=2 / keyint=250 / keyint_min=25 / scenecut=40 / rc_lookahead=40 / rc=2pass / mbtree=1 / bitrate=2523 / ratetol=0.5 / qcomp=0.60 / qpmin=10 / qpmax=51 / qpstep=4 / cplxblur=20.0 / qblur=0.5 / ip_ratio=1.40 / aq=1:1.00
Language : English
Audio #2
ID : 2
Format : AC-3
Format/Info : Audio Coding 3
Codec ID : A_AC3
Duration : 1h 11mn
Bit rate mode : Constant
Bit rate : 192 Kbps
Channel(s) : 2 channels
Channel positions : L R
Sampling rate : 48.0 KHz
Stream size : 98.6 MiB (7%)
Title : English
Language : English
Text #3
ID : 3
Format : ASS
Codec ID : S_TEXT/ASS
Codec ID/Info : Advanced Sub Station Alpha
Title : Chinese Simplified
Language : Chinese

※※※※※※※ 截图信息 ※※※※※※※

Image

Image

※※※※※※※ 影片信息 ※※※※※※※

【英文片名】:City Lights
【中文片名】:城市之光
【国家地区】:美国
【出品年代】:1931
【影片类型】:喜剧、剧情、爱情
【片  长】:88mins
【对白语言】:英语
【视频尺寸】:960x720
【编码格式】:x264+AC3
【影片大小】:1.36GB

【 MD  5值】:7C161A483C5C5E36A2769D494E9FF438
【字幕类型】:中文字幕
【Imdb链接】:http://www.imdb.com/title/tt0021749/
【Imdb评分】:8.6/10   26,001 votes
【导  演】:查理·卓别林 Charles Chaplin
【主要演员】:Charles Chaplin....A Tramp (as Charlie Chaplin)
Virginia Cherrill....A Blind Girl
Florence Lee....The Blind Girl's Grandmother

※※※※※※※ 资料信息 ※※※※※※※

【剧情简介】:

描写小流浪汉爱上了失明的卖花女,身无分文却古道热肠的流浪汉想竭力帮卖花女重见光明。一日他搭救一富翁,因而被请回家并待为上宾,但次日富翁醒来却翻脸不认人。流浪汉为帮盲女复明,参加拳击比赛,在夜总会当打手等……一日他徘徊街头又巧遇富翁,两人弃尽前嫌。富翁给流浪汉一千元资助盲女,俩人却遭遇强盗,富翁受伤,流浪汉舍命保钱,自己被警方误会被捕入狱。出狱后,他再次邂逅已复明的卖花女,当她欲行善道时,才通过手的触摸惊觉此人竟是自己的恩人,上演了一部真爱和自我牺牲的爱情悲喜剧。

※※※※※※※ 参数信息 ※※※※※※※

D:\[HDiY工作组]MKV高清收藏资源\飞鸟娱乐(bbs.hdbird.com).卓别林经典系列4部曲.720P.英语中字£子凡\城市之光 City Lights.1931.BluRay.720p.x264.AC3-HDiY.mkv
General
Complete name : D:\[HDiY工作组]MKV高清收藏资源\飞鸟娱乐(bbs.hdbird.com).卓别林经典系列4部曲.720P.英语中字£子凡\城市之光 City Lights.1931.BluRay.720p.x264.AC3-HDiY.mkv
Format : Matroska
File size : 1.36 GiB
Duration : 1h 27mn
Overall bit rate : 2 241 Kbps
Movie name : Encoded By HDiY Team
Encoded date : UTC 2010-05-28 14:01:09
Writing application : mkvmerge v3.4.0 ('Rapunzel') 编译于 May 15 2010 09:38:20
Writing library : libebml v0.8.0 + libmatroska v0.9.0
Video #1
ID : 1
Format : AVC
Format/Info : Advanced Video Codec
Format profile : High@L4.1
Format settings, CABAC : Yes
Format settings, ReFrames : 6 frames
Muxing mode : Container profile=Unknown@4.1
Codec ID : V_MPEG4/ISO/AVC
Duration : 1h 27mn
Bit rate : 2 004 Kbps
Nominal bit rate : 2 047 Kbps
Width : 960 pixels
Height : 720 pixels
Display aspect ratio : 4:3
Frame rate : 24.000 fps
Resolution : 8 bits
Colorimetry : 4:2:0
Scan type : Progressive
Bits/(Pixel*Frame) : 0.121
Stream size : 1.22 GiB (89%)
Title : HDiy@HDiY
Writing library : x264 core 80 r1376M 3feaec2
Encoding settings : cabac=1 / ref=6 / deblock=1:0:0 / analyse=0x3:0x133 / me=umh / subme=6 / psy=1 / psy_rd=1.0:0.0 / mixed_ref=0 / me_range=24 / chroma_me=1 / trellis=2 / 8x8dct=1 / cqm=1 / deadzone=21,11 / fast_pskip=0 / chroma_qp_offset=-2 / threads=6 / sliced_threads=0 / nr=0 / decimate=0 / mbaff=0 / constrained_intra=0 / bframes=6 / b_pyramid=2 / b_adapt=2 / b_bias=4 / direct=2 / wpredb=1 / wpredp=2 / keyint=250 / keyint_min=25 / scenecut=40 / rc_lookahead=40 / rc=2pass / mbtree=1 / bitrate=2047 / ratetol=0.5 / qcomp=0.60 / qpmin=10 / qpmax=51 / qpstep=4 / cplxblur=20.0 / qblur=0.5 / ip_ratio=1.40 / aq=1:1.00
Language : English
Audio #2
ID : 2
Format : AC-3
Format/Info : Audio Coding 3
Codec ID : A_AC3
Duration : 1h 27mn
Bit rate mode : Constant
Bit rate : 192 Kbps
Channel(s) : 2 channels
Channel positions : L R
Sampling rate : 48.0 KHz
Stream size : 119 MiB (9%)
Title : English
Language : English
Text #3
ID : 3
Format : ASS
Codec ID : S_TEXT/ASS
Codec ID/Info : Advanced Sub Station Alpha
Title : Chinese Simplified
Language : Chinese

※※※※※※※ 截图信息 ※※※※※※※

Image

Image

※※※※※※※ 影片信息 ※※※※※※※

【英文片名】:Modern Times
【中文片名】:摩登时代
【国家地区】:美国
【出品年代】:1936
【影片类型】:喜剧片
【片  长】:86mins
【对白语言】:英语
【视频尺寸】:960x720
【编码格式】:x264+AC3
【影片大小】:1.36GB

【 MD  5值】:D789D3093F5D4139830EDC6E016617D2
【字幕类型】:中文字幕
【Imdb链接】:http://www.imdb.com/title/tt0027977/
【Imdb评分】:8.5/10   34,064 votes
【导  演】:查里·卓别林 Charles Chaplin
【主要演员】:Charles Chaplin ...... A factory worker
Paulette Goddard ...... A gamin
Henry Bergman ...... Cafe proprietor
Tiny Sandford ...... Big Bill/Worker
Chester Conklin ...... Mechanic
Hank Mann ...... Burglar
Stanley Blystone ...... Gamin's father
Al Ernest Garcia ...... President of the Electro Steel Corp.
Richard Alexander ...... Cellmate
Cecil Reynolds ...... Minister
Mira McKinney ...... Minister's wife
Murdock MacQuarrie ...... J. Widdecombe Billows
Wilfred Lucas ...... Juvenile officer
Edward LeSaint ...... Sheriff Couler
Fred Malatesta ...... Waiter

※※※※※※※ 资料信息 ※※※※※※※

【剧情简介】:

本片是卓别林最后一部无声影片。有感于世界经济危机给失业工人带来的痛苦,他决定用电影的形象语言来呐喊。1935年,电影已进入有声时代,可卓别林认为,用滑稽夸张的肢体语言,要远胜于对白,于是他只在片中加入配乐和少许音响就上映了。影片辛辣犀利的讽刺,揭示出工人遭受资本家欺压,榨尽他们最后血汗的严酷现实,理所当然地招致国际资本势力的群起反击,一些评论家的错误读解,也为这股邪恶势推波助澜。舆论的曲解正好证明这部影片的尖锐和深刻。观众永远忘不了主人公查理被机器卷进卷出的镜头以及被流水线弄得麻木机械,在人的鼻子,钮扣拧紧螺母的镜头。卓别以其高超的表现手法向世人展示了一幅代表千百万失业者遭遇的生活画像。影片同时也是他在电影艺术上告别流浪汉形象迈向更加成熟的标志。

※※※※※※※ 参数信息 ※※※※※※※

D:\[HDiY工作组]MKV高清收藏资源\飞鸟娱乐(bbs.hdbird.com).卓别林经典系列4部曲.720P.英语中字£子凡\摩登时代 Modern Times.1936.BluRay.720p.x264.AC3-HDiY.mkv
General
Complete name : D:\[HDiY工作组]MKV高清收藏资源\飞鸟娱乐(bbs.hdbird.com).卓别林经典系列4部曲.720P.英语中字£子凡\摩登时代 Modern Times.1936.BluRay.720p.x264.AC3-HDiY.mkv
Format : Matroska
File size : 1.36 GiB
Duration : 1h 26mn
Overall bit rate : 2 254 Kbps
Movie name : Encoded By HDiY Team
Encoded date : UTC 2010-05-28 14:13:19
Writing application : mkvmerge v3.4.0 ('Rapunzel') 编译于 May 15 2010 09:38:20
Writing library : libebml v0.8.0 + libmatroska v0.9.0
Video #1
ID : 1
Format : AVC
Format/Info : Advanced Video Codec
Format profile : High@L4.1
Format settings, CABAC : Yes
Format settings, ReFrames : 6 frames
Muxing mode : Container profile=Unknown@4.1
Codec ID : V_MPEG4/ISO/AVC
Duration : 1h 26mn
Bit rate : 2 017 Kbps
Nominal bit rate : 2 060 Kbps
Width : 960 pixels
Height : 720 pixels
Display aspect ratio : 4:3
Frame rate : 24.000 fps
Resolution : 8 bits
Colorimetry : 4:2:0
Scan type : Progressive
Bits/(Pixel*Frame) : 0.122
Stream size : 1.22 GiB (89%)
Title : HDiy@HDiY
Writing library : x264 core 80 r1376M 3feaec2
Encoding settings : cabac=1 / ref=6 / deblock=1:0:0 / analyse=0x3:0x133 / me=umh / subme=6 / psy=1 / psy_rd=1.0:0.0 / mixed_ref=0 / me_range=24 / chroma_me=1 / trellis=2 / 8x8dct=1 / cqm=1 / deadzone=21,11 / fast_pskip=0 / chroma_qp_offset=-2 / threads=6 / sliced_threads=0 / nr=0 / decimate=0 / mbaff=0 / constrained_intra=0 / bframes=6 / b_pyramid=2 / b_adapt=2 / b_bias=4 / direct=2 / wpredb=1 / wpredp=2 / keyint=250 / keyint_min=25 / scenecut=40 / rc_lookahead=40 / rc=2pass / mbtree=1 / bitrate=2060 / ratetol=0.5 / qcomp=0.60 / qpmin=10 / qpmax=51 / qpstep=4 / cplxblur=20.0 / qblur=0.5 / ip_ratio=1.40 / aq=1:1.00
Language : English
Audio #2
ID : 2
Format : AC-3
Format/Info : Audio Coding 3
Codec ID : A_AC3
Duration : 1h 26mn
Bit rate mode : Constant
Bit rate : 192 Kbps
Channel(s) : 2 channels
Channel positions : L R
Sampling rate : 48.0 KHz
Stream size : 119 MiB (9%)
Title : English
Language : English
Text #3
ID : 3
Format : ASS
Codec ID : S_TEXT/ASS
Codec ID/Info : Advanced Sub Station Alpha
Title : Chinese Simplified
Language : Chinese

※※※※※※※ 截图信息 ※※※※※※※

Image

Image

※※※※※※※ 影片信息 ※※※※※※※

【英文片名】:The Great Dictator
【中文片名】:大独裁者
【国家地区】:美国
【出品年代】:1940
【影片类型】:喜剧
【片  长】:126mins
【对白语言】:英语
【视频尺寸】:960x720
【编码格式】:x264+AC3
【影片大小】:2.18GB

【 MD  5值】:71749B5D7F0997D6F2ACF63F57464EBB
【字幕类型】:中文字幕
【Imdb链接】:http://www.imdb.com/title/tt0032553/
【Imdb评分】:8.4/10   35,372 votes
【导  演】:查里·卓别林 Charles Chaplin
【主要演员】:查里·卓别林 Charles Chaplin
雷金纳德 加德纳 Reginald Gardiner

※※※※※※※ 资料信息 ※※※※※※※

【剧情简介】:

查理.卓别林自导自演的此片拍摄于希特勒气焰最为嚣张之时,片中对希特勒大加讽刺的情节显示了其道德勇气可嘉的一面。剧情描述犹太人理发师查理,因为独裁者兴杰尔对犹太人下达了逮捕令而东躲西藏。不料在奥国边境时,却被驻守在那里的德军误认为他就是兴杰尔,于是他趁机作了一场维护民主主义的大演说。该片并不是卓别林的杰作,理发匠部分平平无奇,独裁者部分则有淋漓畅快的效果,尤以地球舞一场令人叹为观止。最后的演说内容精彩,但表现方式值得商榷。

※※※※※※※ 参数信息 ※※※※※※※

D:\[HDiY工作组]MKV高清收藏资源\飞鸟娱乐(bbs.hdbird.com).卓别林经典系列4部曲.720P.英语中字£子凡\大独裁者 The Great Dictator.1940.BluRay.720p.x264.AC3-HDiY.mkv
General
Complete name : D:\[HDiY工作组]MKV高清收藏资源\飞鸟娱乐(bbs.hdbird.com).卓别林经典系列4部曲.720P.英语中字£子凡\大独裁者 The Great Dictator.1940.BluRay.720p.x264.AC3-HDiY.mkv
Format : Matroska
File size : 2.18 GiB
Duration : 2h 5mn
Overall bit rate : 2 499 Kbps
Movie name : Encoded By HDiY Team
Encoded date : UTC 2010-05-29 06:56:06
Writing application : mkvmerge v3.4.0 ('Rapunzel') 编译于 May 15 2010 09:38:20
Writing library : libebml v0.8.0 + libmatroska v0.9.0
Video #1
ID : 1
Format : AVC
Format/Info : Advanced Video Codec
Format profile : High@L4.1
Format settings, CABAC : Yes
Format settings, ReFrames : 6 frames
Muxing mode : Container profile=Unknown@4.1
Codec ID : V_MPEG4/ISO/AVC
Duration : 2h 5mn
Bit rate : 2 257 Kbps
Nominal bit rate : 2 305 Kbps
Width : 960 pixels
Height : 720 pixels
Display aspect ratio : 4:3
Frame rate : 24.000 fps
Resolution : 8 bits
Colorimetry : 4:2:0
Scan type : Progressive
Bits/(Pixel*Frame) : 0.136
Stream size : 1.97 GiB (90%)
Title : HDiy@HDiY
Writing library : x264 core 80 r1376M 3feaec2
Encoding settings : cabac=1 / ref=6 / deblock=1:0:0 / analyse=0x3:0x133 / me=umh / subme=6 / psy=1 / psy_rd=1.0:0.0 / mixed_ref=0 / me_range=24 / chroma_me=1 / trellis=2 / 8x8dct=1 / cqm=1 / deadzone=21,11 / fast_pskip=0 / chroma_qp_offset=-2 / threads=6 / sliced_threads=0 / nr=0 / decimate=0 / mbaff=0 / constrained_intra=0 / bframes=6 / b_pyramid=2 / b_adapt=2 / b_bias=4 / direct=2 / wpredb=1 / wpredp=2 / keyint=250 / keyint_min=25 / scenecut=40 / rc_lookahead=40 / rc=2pass / mbtree=1 / bitrate=2305 / ratetol=0.5 / qcomp=0.60 / qpmin=10 / qpmax=51 / qpstep=4 / cplxblur=20.0 / qblur=0.5 / ip_ratio=1.40 / aq=1:1.00
Language : English
Audio #2
ID : 2
Format : AC-3
Format/Info : Audio Coding 3
Codec ID : A_AC3
Duration : 2h 5mn
Bit rate mode : Constant
Bit rate : 192 Kbps
Channel(s) : 2 channels
Channel positions : L R
Sampling rate : 48.0 KHz
Stream size : 172 MiB (8%)
Title : English
Language : English
Text #3
ID : 3
Format : ASS
Codec ID : S_TEXT/ASS
Codec ID/Info : Advanced Sub Station Alpha
Title : Chinese Simplified
Language : Chinese

※※※※※※※ 截图信息 ※※※※※※※

Image

BT下载

引用

Charlie.Chaplin.1925-1940.BluRay.720p.x264.AC3-HDiY 英语中字/6.3GB

Charlie.Chaplin.1925-1940.BluRay.720p.x264.AC3-HDiY  英语中字/6.3GB

 

 

引用

视频编码信息

郑重声明:
本站提供的所有影视作品均是在网上搜集,任何涉及商业盈利目的均不得使用,否则产生的一切后果将由您自己承担!本站将不对本站的任何内容负任何法律责任!该下载内容仅做宽带测试使用,请在下载后24小时内删除。请购买正版!

写给访问本站,热爱电影的「小伙伴」的一封信!!

admin

发表评论

:?: :razz: :sad: :evil: :!: :smile: :oops: :grin: :eek: :shock: :???: :cool: :lol: :mad: :twisted: :roll: :wink: :idea: :arrow: :neutral: :cry: :mrgreen:

图片 表情