生生活活/生动的艳火[限制级韩影/低调]Saeng.Saeng.Hwal.Hwal.2013.720p.HDRip.H264-Canrel

2013年11月18日PM06时11分 / 作者:   / 未分类  / 发表评论 /

◎译  名 生生活活/Saeng Saeng Hwal Hwal/Eating,Talking,Faucking
◎片  名 생생활활
◎年  代 2013
◎国  家 韩国
◎类  别 剧情/情|色
◎语  言 韩语
◎片  长 99分钟
◎导  演 朴哲洙 Cheol-su Park
◎主  演 吴仁惠 오인혜/吴光禄 Kwang-rok Oh/李德华 Deok-hwa Lee/曹善穆 Seon-mok Jo/金成民 Kim Seong-min

◎简  介
人类最难以启齿的话题,无非性吧!
古稀老人和14岁孩子们的故事;两个面临死亡的士兵和强奸惯犯关于欲望的故事;一对赤身裸体、一丝不挂的男女;制造了人类有操纵他们情欲的造物主的故事……一段段都是惊世骇俗的经历。
这是一部当代韩版《十日谈》,也是韩国导演朴哲洙留给韩国电影的最后礼物!

BT下载:

Saeng.Saeng.Hwal.Hwal.2013.720p.HDRip.H264-Canrel.2.21GB   自带中文字幕

Saeng.Saeng.Hwal.Hwal.2013.720p.HDRip.H264-Canrel.2.21GB

中文字幕:Saeng.Saeng.Hwal.Hwal.2013.720p.HDRip.H264-Canrel.chs

Quote:

General
Complete name : Saeng.Saeng.Hwal.Hwal.2013.720p.HDRip.H264-Canrel.avi
Format : MPEG-4
Codec ID : M4V
File size : 2.21 GiB
Duration : 1h 39mn
Overall bit rate : 3 187 Kbps
Encoded date : UTC 2013-03-19 03:33:09
Tagged date : UTC 2013-03-19 03:34:05
??M : 00;00;00;00
??C : 30000
??Z : 1001

Video
ID : 1
Format : AVC
Format/Info : Advanced Video Codec
Format profile : Baseline@L3.1
Format settings, CABAC : No
Format settings, ReFrames : 2 frames
Codec ID : avc1
Codec ID/Info : Advanced Video Coding
Duration : 1h 39mn
Bit rate mode : Variable
Bit rate : 2 995 Kbps
Width : 1 280 pixels
Height : 720 pixels
Display aspect ratio : 16/9
Frame rate mode : Variable
Frame rate : 29.970 fps
Minimum frame rate : 29.970 fps
Maximum frame rate : 30.000 fps
Standard : NTSC
Resolution : 24 bits
Colorimetry : 4:2:0
Scan type : Progressive
Bits/(Pixel*Frame) : 0.108
Stream size : 2.08 GiB (94%)
Language : English
Encoded date : UTC 2013-03-19 03:33:09
Tagged date : UTC 2013-03-19 03:33:09

Audio
ID : 2
Format : AAC
Format/Info : Advanced Audio Codec
Format version : Version 4
Format profile : LC
Format settings, SBR : No
Codec ID : 40
Duration : 1h 39mn
Bit rate mode : Variable
Bit rate : 192 Kbps
Maximum bit rate : 288 Kbps
Channel(s) : 2 channels
Channel positions : L R
Sampling rate : 44.1 KHz
Resolution : 16 bits
Stream size : 135 MiB (6%)
Language : English
Encoded date : UTC 2013-03-19 03:33:09
Tagged date : UTC 2013-03-19 03:33:09

admin

发表评论

:?: :razz: :sad: :evil: :!: :smile: :oops: :grin: :eek: :shock: :???: :cool: :lol: :mad: :twisted: :roll: :wink: :idea: :arrow: :neutral: :cry: :mrgreen:

图片 表情