特殊身份/终极解码.Special.ID.2013.DVDScr.x264.2Audio-SmY 中英(内嵌)1.64G

2013年11月02日PM05时13分 / 作者:   / 未分类  / 评论 1 /

◎译  名 特殊身份/终极解码
◎片  名 Special.ID
◎年  代 2013
◎国  家 中国大陆
◎类  别 动作 / 犯罪
◎语  言 汉语普通话 / 粤语
◎字  幕 中文/英文
◎IMDB评分  N/A
◎IMDB链接  N/A
◎文件格式 x264 + AC3
◎视频尺寸 720x366
◎文件大小 1CD  1.64 GB
◎片  长 1h 39mn
◎导  演 司徒锦源 Kam-Yuen Szeto
◎主  演 甄子丹 Donnie Yen  ....陈子龙
景甜 Tian Jing  ....方静
张涵予 Hanyu Zhang  ....刀锋
邹兆龙 Collin Chou  ....长毛雄
安志杰 Andy On  ....Sunny
郑中基 Ronald Cheng  ....张警官
鲍起静 Hee Ching Paw  ....陈母
杨志刚 Zhigang Yang  ....雷队长
亓达吉 Daji Qi
吴志雄 Chi Hung Ng
卢惠光 Ken Lo

◎简  介

陈子龙(甄子丹 饰)被香港警方挑选卧底混入黑社会工作,收集黑社会大头目“熊”(邹兆龙饰)犯罪情报。出生入死的生活,陈子龙已感厌倦,希望早日回复自由身。熊的组织连连被警方瓦解,意会到内部一定有卧底。开始对每个不信任手下展开大屠杀。陈子龙怕身份早晚被揭发,急于找其上司张Sir(郑中基饰)。不过,张Sir认为是目前有个千载难逢机会,可以全面瓦解熊的全部组织。希望陈子龙尽最后努力,陪同该组织内最利害头目Sunny(安志杰饰)到中国内地,调查他们在海南岛犯罪行径,以便全部绳之于法。到了内地,陈子龙及Sunny被一个神秘刺客“剑锋”(张涵予饰)追杀,陈子龙处于一个极度危险境界,是生是死已无法自控……

Special.ID.2013.DVDScr.x264.2Audio-SmY  中英(内嵌)1.64G

国粤双语,默认为国语,粤语请播放器自行切换。

Format : Matroska
File size : 1.64 GiB
Duration : 1h 38mn
Overall bit rate : 2 376 Kbps
Encoded date : UTC 2013-11-01 16:17:30
Writing application : mkvmerge v5.2.0 ('I can't explain') built on Dec 18 2011 18:12:03
Writing library : libebml v1.2.3 + libmatroska v1.3.0
Video #1
ID : 1
Format : AVC
Format/Info : Advanced Video Codec
Format profile : High@L3.1
Format settings, CABAC : Yes
Format settings, ReFrames : 4 frames
Muxing mode : Container profile=Unknown@3.1
Codec ID : V_MPEG4/ISO/AVC
Duration : 1h 38mn
Bit rate : 1 945 Kbps
Nominal bit rate : 2 000 Kbps
Width : 720 pixels
Height : 366 pixels
Display aspect ratio : 1.967
Frame rate : 29.970 fps
Resolution : 8 bits
Colorimetry : 4:2:0
Scan type : Progressive
Bits/(Pixel*Frame) : 0.246
Stream size : 1.34 GiB (82%)
Writing library : x264 core 116 r2074 2641b9e
Audio #2
ID : 2
Format : AC-3
Format/Info : Audio Coding 3
Codec ID : A_AC3
Duration : 1h 38mn
Bit rate mode : Constant
Bit rate : 192 Kbps
Channel(s) : 2 channels
Channel positions : L R
Sampling rate : 48.0 KHz
Stream size : 136 MiB (8%)
Audio #3
ID : 3
Format : AC-3
Format/Info : Audio Coding 3
Codec ID : A_AC3
Duration : 1h 38mn
Bit rate mode : Constant
Bit rate : 192 Kbps
Channel(s) : 2 channels
Channel positions : L R
Sampling rate : 48.0 KHz
Stream size : 136 MiB (8%)

电影截图

电影海报:

admin

目前评论:1   其中:访客  1   博主  0

  1. 锋子 4

    丹哥这回打得好像不怎么样啊 :roll:

评论加载中...

发表评论

:?: :razz: :sad: :evil: :!: :smile: :oops: :grin: :eek: :shock: :???: :cool: :lol: :mad: :twisted: :roll: :wink: :idea: :arrow: :neutral: :cry: :mrgreen:

图片 表情