恐怖故事2.Horror.Stories.II.2013.720p.HDRip-NonDRM

2013年11月01日PM01时18分 / 作者:   / 未分类  / 评论 3 /


◎译  名 恐怖故事2
◎片  名 Horror Stories 2/moo-seo-woon i-ya-gi-2/무서운 이야기2
◎年  代 2013
◎国  家 韩国
◎类  别 惊悚/恐怖
◎语  言 韩语
◎字  幕 N/A
◎IMDB评分 N/A
◎IMDB链接 N/A
◎视频尺寸 1280x544
◎文件大小 1CD 2.22 GiB
◎片  长 1h 36mn
◎导  演 拉契得·波查拉 Rachid Bouchareb
◎主  演 西耶娜·米勒 Sienna Miller  ....Marilyn
歌什菲·法拉哈尼 Golshifteh Farahani  ....Mona
巴哈·索莫克 Bahar Soomekh  ....Soha
蒂姆·金尼 Tim Guinee  ....George
罗什迪·泽姆 Roschdy Zem  ....Mourad
Chafia Boudraa  ....La mère de Mourad
Jesse Harper  ....Harvey
Sayed Badreya  ....Tarek
Usman Ally  ....Ousman
Paolina Cimino  ....Belly Dancer
Richard Cotovsky  ....Homeless Man
Michael Ehlers  ....Peter
Lorena Fernández  ....Belly Dancer
Doug James  ....George's Father
Kimberly Kiegel  ....Woman Judge
Loren Lazerine  ....Ron
Mike Miller  ....Neighbor
Francisco Peramos  ....Judge
Aaron Walters  ....Suspect
Rebekah Ward-Hays  ....Rebecca (as Rebekah Ward-Hays)
Ruben Nakai Campana  ....Indian Youth (uncredited)

◎简  介

闵奎东、郑范识、金辉、金成浩四导演再推恐怖短片合集第二部——《恐怖故事2》,围绕“死后的世界”这一共同的主题,讲述了四个有关“死亡”的奇谈故事。

Overture:《444》

某保险公司地下秘密仓库。

朴部长和新人职员世英抽出一叠尘封许久的旧文档。世英拥有可以和死者沟通的奇异能力。在朴部长的指示下,她要运用自己的超能力解开那些涉嫌保险欺诈的亡故事件。随着抽茧剥丝的调查,事情的线索纷纷浮出水面。

遇险怪谈:《绝壁》

看不到希望的绝壁上,两个遇险好友仅剩下一个可以糊口的巧克力派,不是你死就是我亡。
旅行怪谈:《事故》

任用考试落榜的三个朋友为了排解郁闷的心情,结伴旅行,未成想却遭遇了一场难以预料的噩梦。

电梯怪谈:《逃生》

师范实习老师当值第一天就遭到学生的捉弄,自觉万分丢脸。他听了着迷于异术的女学生的话,搭上神秘恐怖的电梯,却被关在了另一个世界。为了逃生,女学生不得不使用咒术为其脱身。

幕后制作

揭秘“死后世界”

暑期档开档在即,又是恐怖片一展身手的好时机。由闵奎东、郑范识、金辉、金成浩四导演领衔的惊悚片《恐怖故事2》蓄势待发。去年暑期档上映的巴士鬼片《恐怖故事》由闵奎东、郑范识、洪志英、金谷、金善挂帅,带了不少猎奇的冷汗故事,上映后反响良可,可谓不失不过。今年四导演聚首再次带来四个有关“死亡”的奇谈。今次的四名导演此前都有拍摄灵异题材的经验,金成浩由好评如潮的《照出冤灵》、金辉有人气不俗的《邻居》、郑范识有画面唯美的《奇谈》、闵奎东则参与了《恐怖故事》的拍摄。与前作不同的是,今次的四个故事围绕主题——死后的世界。

闵奎东的《444》应算作整部影片的引子故事,虽发生在现实空间中的保险公司地下仓库,却是与死者沟通的的重要场所;金成浩的《绝壁》讲述了好友间“两个只能活一个”的残酷境遇;金辉的《事故》出现了东洋式人类灵魂归天后的奇异世界;郑范识的《逃生》中则出现了与现实相似的死后世界,却充满了灵异色彩。

群星荟萃 群戏生辉

影片荟萃了一众20+的少壮派,很好地遵循了恐怖片一直以来的年轻阵容。

《绝壁》中,以对“生死之交”由成俊和李秀赫担纲。前者曾出演tvN剧集《闭嘴!花美男乐队》中目中无人的队长兼主唱,演技深得人心;后者在SBS剧集《树大根深》和电影《车刑警》中的表演俘获了众多女粉丝的芳心。

《事故》中汇集了白珍熙、[金涩琪]、郑仁善三名青春女星,是片中较为亮眼的段落。白珍熙曾在MBC系列剧《Highkick3:短腿的逆袭》中呈现过非常亮眼的表现。《事故》中,她饰演沉沦在死后奇异世界的女大学生,大展其惊悚演技。近期口碑不俗的金涩琪饰演了片中陷入极其混乱状态的女大生,和此前给人的诙谐形象大相径庭。童星出道的郑仁善也展现了不俗的恐怖演技,算是表演转型的里程碑之作。

《逃生》中饰演男主角的高庚杓曾在tvN的《邻家花美男》中成功塑造了一个搞笑型美男形象,给观众留下了深刻的印象。此次,他一改诙谐本色,饰演了一个介于现实和地狱中的小人物,将幽默和恐怖做了一个巧妙的中和,与金智媛饰演的女学生配合得相得益彰,令人期待。

此外,童星出道的李世英在《444》中饰演了具有通灵能力的新人职员,也展现了惊艳的演技,成为整部影片的线索人物。

花絮

·《恐怖故事2》由Soofilm公司制作,乐天娱乐出品,也是2012年《恐怖故事》的续篇.

BT下载

引用

Horror.Stories.II.2013.720p.HDRip-NonDRM

引用

Format : MPEG-4
Format profile : Base Media
Codec ID : isom
File size : 2.22 GiB
Duration : 1h 36mn
Overall bit rate : 3 304 Kbps
Writing application : PotEncoder
Video #1
ID : 1
Format : AVC
Format/Info : Advanced Video Codec
Format profile : Baseline@L3.1
Format settings, CABAC : No
Format settings, ReFrames : 2 frames
Codec ID : avc1
Codec ID/Info : Advanced Video Coding
Duration : 1h 36mn
Bit rate mode : Variable
Bit rate : 3 134 Kbps
Width : 1 280 pixels
Height : 544 pixels
Display aspect ratio : 2.35:1
Frame rate mode : Constant
Frame rate : 23.976 fps
Color space : YUV
Chroma subsampling : 4:2:0
Bit depth : 8 bits
Scan type : Progressive
Bits/(Pixel*Frame) : 0.188
Stream size : 2.11 GiB (95%)
Audio #2
ID : 2
Format : AAC
Format/Info : Advanced Audio Codec
Format profile : LC
Codec ID : 40
Duration : 1h 36mn
Bit rate mode : Variable
Bit rate : 165 Kbps
Channel(s) : 2 channels
Channel positions : Front: L R
Sampling rate : 48.0 KHz
Compression mode : Lossy
Stream size : 114 MiB (5%)

郑重声明:
本站提供的所有影视作品均是在网上搜集,任何涉及商业盈利目的均不得使用,否则产生的一切后果将由您自己承担!本站将不对本站的任何内容负任何法律责任!该下载内容仅做宽带测试使用,请在下载后24小时内删除。请购买正版!

写给访问本站,热爱电影的「小伙伴」的一封信!!

admin

目前评论:3   其中:访客  3   博主  0

  1. sunyihao2006 5

    有1吗?我想看1

  2. →→→点我*E夜情DP交友 0

    呵呵

评论加载中...

发表评论

:?: :razz: :sad: :evil: :!: :smile: :oops: :grin: :eek: :shock: :???: :cool: :lol: :mad: :twisted: :roll: :wink: :idea: :arrow: :neutral: :cry: :mrgreen:

图片 表情